Lop 9B - Truong Cao Xanh - Nien Khoa 1992 - 1996
Chào mừng bạn đến với diễn đàn của lớp chúng tôi.
Hãy đăng ký làm thành viên để có được mọi quyền hạn trong diễn đàn.

[Mega.1280/18+]Diary Of A Sex Addict 720P (2008)

Go down

[Mega.1280/18+]Diary Of A Sex Addict 720P (2008)

Bài gửi by Nguyen Nam Tuan on Thu Apr 29, 2010 1:22 pm

Diary Of A Sex Addict



Code:
General
Format                          : Matroska
File size                        : 4.36 GiB
Duration                        : 1h 41mn
Overall bit rate                : 6 152 Kbps
Encoded date                    : UTC 2009-06-11 08:50:55
Writing library                  : libebml v0.7.7 + libmatroska v0.8.1

Video
ID                              : 1
Format                          : AVC
Format/Info                      : Advanced Video Codec
Format profile                  : High@L4.1
Format settings, CABAC          : Yes
Format settings, ReFrames        : 5 frames
Muxing mode                      : Container profile=Unknown@4.1
Codec ID                        : V_MPEG4/ISO/AVC
Duration                        : 1h 41mn
Bit rate                        : 4 519 Kbps
Nominal bit rate                : 4 640 Kbps
Width                            : 1 280 pixels
Height                          : 544 pixels
Display aspect ratio            : 2.35
Frame rate                      : 24.000 fps
Resolution                      : 24 bits
Colorimetry                      : 4:2:0
Scan type                        : Progressive
Bits/(Pixel*Frame)              : 0.270
Stream size                      : 3.20 GiB (73%)
Writing library                  : x264 core 67 r1134M b8808bf
Language                        : Spanish

Audio
ID                              : 2
Format                          : DTS
Format/Info                      : Digital Theater Systems
Codec ID                        : A_DTS
Duration                        : 1h 41mn
Bit rate mode                    : Constant
Bit rate                        : 1 510 Kbps
Channel(s)                      : 6 channels
Channel positions                : Front: L C R, Surround: L R, LFE
Sampling rate                    : 48.0 KHz
Resolution                      : 16 bits
Stream size                      : 1.07 GiB (25%)
Language                        : Spanish
Download
Phim có nhiều cảnh khỏa thân và làm tình nhậy cảm. Cân nhắc trước khi xem

minh họa
avatar
Nguyen Nam Tuan

Tổng số bài gửi : 462
Points : 1106
Reputation : 0
Join date : 18/02/2010
Age : 37
Đến từ : Hạ Long

Xem lý lịch thành viên http://lop9b.forum.st

Về Đầu Trang Go down

Về Đầu Trang


 
Permissions in this forum:
Bạn không có quyền trả lời bài viết